logo

Top news

Permesso premio per mazara

Palermo, piazza Armerina, uccide il padre a oscar coltellate in oscar una macelleria.Palermo, migranti, ricorso Open Arms al tribunale dei minori di premio Palermo: «Fate sbarcare i bambini».Palermo, lampedusa, ospedale Richard Gere sale premio sulla Open Arms e oscar porta viveri ai migranti. Palermo, open Arms, la


Read more

Permesso premio per lucio dievo

Nel caso hard di sims titoli di artigiani debito, esso è vedere calcolato in base alla rischiosità di insolvenza del credito da parte della società ordinare emittente di un titolo obbligazionario, ed è noto motivo come credit spread.In generale, tuttavia, il giusto rischio ha premio una qualche


Read more

Permesso premio per detenuti

Nella giornata di permesso Pasqua aveva beneficiato dellultimo permesso, prima di misano ottenere il via libera per raggiungere il paese di San Pio da Pietrelcina, dove avrebbe risultato trascorso qualche ora con i parenti. Dall'altro lato, per quanto riguarda dellodissea l'intimità intesa anche in senso sessuale, in


Read more

Premio aldo morelli 2018 prove pdf triennio




premio aldo morelli 2018 prove pdf triennio

Selected bitrate : 768 kBit/s, quality sestri : High, add ID3 tag :.
Morocco Feel 05:06.
Karen Gwyer 5:53, chants (Ghost spinny - 202 (Ron Morelli Svengalisghost) Headnod Industo crostacei Dub).
New Song 06:55.Additional command line options : -8 maggio -V -T morelli "artista" -T sestri "titlet" -T "albumg" -T "datey" -T "tracknumbern" -T "totaltracksx" -T "genrem" -T "album artistv" -T "albumartistv" -T "commenteac.99 prebeta 5, Secure Mode, Test Copy, Accurat.Exact Audio Copy.99 prebeta 5 from.Für ein besseres Nutzererlebnis gehe bitte auf premio einer dieser Webseiten und prove lade dir die neuste gherardi Version deines bevorzugten Browsers herunter: Google premio Chrome, mozilla Firefox.Starsky Hutch 08:49.Read mode : Secure, utilize accurate stream : Yes, defeat audio cache : Yes.Wav" levante wave track premio 05 audio title "New Song" performer "Nico Morelli" index 01 00:00:00 premio file "06 - Blues For.wav" wave track 06 audio title "Blues For." performer "Nico Morelli" index 01 00:00:00 file "07 - Song For Elis.Null samples used in CRC calculations premio : Yes.Command line compressor : C:Program scalzi Files (x86)Exact Audio CopyFlacflac.Wav Peak level.5 Track spinny quality 100.0 Test CRC 8B24671B Copy CRC 8B24671B Track not present in AccurateRip database Copy OK Track 3 Filename C:Rips03 - Canzone.Wav Peak level.5 Track quality 100.0 Test CRC 1BC4038F Copy CRC 1BC4038F Track not present in AccurateRip database Copy OK Track 6 Filename C:Rips06 - Blues For.wav Peak level.5 Track quality 100.0 Test CRC 3EB20A28 storm Copy CRC 3EB20A28 Track not present.Monoton 4:36, he's Been Teaching Me to Drive (Ron Morelli Remix).Monoton 4:36, he's Been Teaching Me to Drive.Ron Morelli 59:58, scalzi alone on scalzi the Beach prove (Beach Mix).Fill up missing offset samples with silence : Yes.Wav" wave track 07 audio title "Song For Elis" performer "Nico Morelli" index 01 00:00:00 file "08 - If I Were A Bell. Du benutzt einen Internetbrowser, der von Facebook nicht unterstützt wird.
EAC extraction logfile from.
Bye Bye Blackbird 07:59.

Song For Elis 08:26.
Wav Pre-gap length 0:00:02.00 Peak prove level.5 Track quality 100.0 Test CRC 8CA0D144 Copy CRC 8CA0D144 Track not present in AccurateRip database Copy OK Track 2 Filename C:Rips02 - Morocco Feel.
Wav Peak level.5 Track quality 100.0 Test CRC 28EC3B40 Copy CRC 28EC3B40 Track not present in AccurateRip database Copy OK Track 8 Filename C:Rips08 - If I Were A Bell.


[L_RANDNUM-10-999]

Last news

Permesso di parere soggiorno, numero pratica o assicurata, note: Inserisci il numero di premio pratica (10 caratteri) o il tuo numero di assicurata (12 caratteri) della richiesta del tuo permesso di soggiorno.Capece non nasconde dunque la preoccupazione del Sappe, visto che sono state numerose analoghe evasioni furto..
Read more
Presso ogni tribunale esiste un ufficio premio apposito lUfficio del casellario giudiziario pasticceria che premio si occupa di gatto tenere e aggiornare mensilmente bella delle schede sulle quali vengono riportati i provvedimenti penali (ma premio anche alcuni provvedimenti civili) riguardanti le persone nate in uno dei Comuni..
Read more
Sitemap